#TITLE:Boss Fight;
#SUBTITLE:;
#ARTIST:Terranigma;
#TITLETRANSLIT:;
#SUBTITLETRANSLIT:;
#ARTISTTRANSLIT:;
#CREDIT:;
#BANNER:Boss Fight-banner.png;
#BACKGROUND:Boss Fight.png;
#LYRICSPATH:;
#CDTITLE:;
#MUSIC:Terranigma - Boss Fight (Arranged).mp3;
#OFFSET:-0.300;
#SAMPLESTART:100.000;
#SAMPLELENGTH:11.860;
#SELECTABLE:YES;
#BPMS:0.000=160.000;
#STOPS:;
#BGCHANGES:0.000=Terranigma=1.000=0=0=1,
99999=-nosongbg-=1.000=0=0=0 // don't automatically add -songbackground-
;
// cache tags:
#FIRSTBEAT:0.500;
#LASTBEAT:458.667;
#SONGFILENAME:Songs/Songfolder/Terranigma - Boss Fight (Arranged)/Terranigma - Boss Fight (Arranged).sm;
#HASMUSIC:1;
#HASBANNER:1;
#MUSICLENGTH:177.005;
// end cache tags

//---------------dance-single - Copied from----------------
#NOTES:
     dance-single:
     Copied from:
     Challenge:
     9:
     0.816,0.842,1.000,0.548,1.000,711.000,203.000,97.000,94.000,5.000:
0000
0000
0000
0001
0000
0000
0010
0000
0100
0000
1000
0000
0100
0000
0000
0101
0000
0000
1010
0000
0000
0011
0000
0000
,
1000
0110
0000
0011
1001
0000
0010
0101
,
1000
0000
0100
0000
0010
0000
1000
0000
0100
0000
0010
0000
1000
0000
0000
0100
0000
0000
0010
0000
0000
0001
0000
0000
,
1100
0001
0000
0011
1000
0110
0001
0010
,
0001
0010
0100
0001
0010
0100
2000
0000
0000
3002
0000
0000
,
0010
0000
0000
0020
0000
0000
0030
0000
0100
0000
0000
1000
,
0003
0000
0000
0110
0000
0000
0000
0000
0000
0010
0000
0000
0000
0000
0000
0011
0000
0000
0000
0000
0100
0000
0000
0000
0000
0000
0000
0011
0000
0000
0000
0000
0000
0000
0000
0000
0000
0000
0000
0110
0000
0000
0000
0000
1000
0000
0000
0000
,
0000
0000
0000
0000
0000
0000
0000
0000
0000
0001
0000
0000
0000
0000
0000
0010
0000
0000
0000
0000
0100
0000
0000
0000
0001
0000
0000
0000
0010
0000
0000
0000
0100
0000
0000
0000
0001
0000
0000
0000
0010
0000
0000
0000
1000
0000
0000
0000
,
0000
0000
0000
0101
0000
0000
0000
0000
0000
0010
0000
0000
0000
0000
0000
0101
0000
0000
0000
0000
1000
0000
0000
0000
0000
0000
0000
0001
0000
0000
0000
0000
0000
0000
0000
0000
0000
0000
0000
0100
0000
0000
0000
0000
1000
0000
0000
0000
,
0000
0000
0000
0000
0000
0000
0000
0000
0000
0010
0000
0000
0000
0000
0000
0100
0000
0000
0000
0000
1000
0000
0000
0000
0100
0000
0000
0000
0010
0000
0000
0000
0001
0000
0000
0000
0010
0000
0000
0000
0100
0000
0000
0000
2002
0000
0000
0000
,
0000
0000
0000
0000
0000
0000
3000
0000
0000
0100
0003
0000
0000
0000
0000
2020
0000
0000
0000
0000
0000
0000
0000
0000
,
3030
0000
0000
0011
0000
0000
1010
0000
0000
0000
0000
0000
1100
0000
0000
0000
1001
0000
1010
0000
2000
0000
0000
0000
,
0000
0001
3000
0010
0100
0001
1000
0100
,
1000
0000
0000
0001
0000
0000
0100
0000
0000
0001
1000
0000
0100
0000
0010
0000
2002
0000
0000
0000
0000
0000
0000
0000
,
3003
0000
0000
0000
0000
0000
0100
0000
0020
1000
0000
0000
0000
0000
0000
0100
0000
0000
0000
0000
0000
0001
0030
0000
,
0000
0000
0000
0000
1MM1
0000
0000
0000
M11M
0000
0000
0000
0000
0000
1M1M
0000
0000
0000
0000
0000
M0MM
0100
0000
0000
,
0000
0000
0000
0000
1MMM
0000
0000
0000
0000
0000
M1MM
0000
0000
0000
MM0M
0010
0000
0000
0000
0000
1MMM
0000
0000
0000
,
0000
M1MM
0000
0000
0202
0000
0000
0000
0000
0300
1000
0010
,
0000
1000
0100
0000
1000
0010
0000
1000
0100
0000
1000
0010
,
0000
1000
0103
0000
1001
1001
0000
0000
1010
0000
0000
0011
,
0000
0000
0110
0000
0000
1001
0000
0000
0101
1010
0100
0000
,
0000
0000
1001
0000
0000
1010
0000
0000
0110
0000
0000
0011
,
0000
0000
0110
0020
0000
0000
0001
0001
0000
0000
1000
1000
,
0000
0000
0100
0100
0000
0000
1000
0030
1000
1000
0100
0010
,
1000
0100
0010
020M
0000
0000
1000
10M0
0000
0000
M010
0010
,
0000
0000
00M1
0001
0000
0000
100M
0000
10M0
0000
0000
0000
,
0301
0010
0100
0000
1001
0110
0000
0110
0000
0000
1100
0011
,
0000
0000
0110
0000
0110
0000
0000
0110
0110
0000
1000
0100
,
0010
1000
0100
0010
1000
1000
0000
0110
0000
0000
0001
0110
,
0000
0000
1100
0000
1100
0000
0000
0011
1000
0000
0001
0010
,
0100
1000
0001
0010
0102
0000
0M00
0000
M0M0
0M00
0003
1010
,
0000
0000
0220
0000
0000
0000
0000
0000
0030
0000
0000
0000
0300
0000
1010
0000
0000
0000
0101
0000
0000
1100
0000
0000
,
0100
0110
1000
0011
0000
0110
1001
0000
,
0110
0000
0000
0100
0000
0000
1000
0000
0100
0000
0010
0000
1000
0000
0100
0000
0010
0000
1001
0000
0000
0110
0000
0000
,
0101
0110
1100
0110
0000
0101
1010
0000
,
0110
0000
0000
0101
0000
0000
0001
0000
0010
0000
0100
0000
1000
0000
0100
0000
0010
0000
0002
0000
0000
0100
0000
0000
,
0200
0000
0003
0310
2000
0010
0020
3030
,
0000
0001
0020
0100
2000
0000
0030
3100
,
0002
0000
0000
0010
0000
0000
0200
0000
0000
0000
0000
0000
0303
0000
0000
1000
0000
0000
1000
0000
0100
0000
0010
0000
,
0002
0000
0000
0100
0000
0000
0000
0000
10M0
0000
0000
0000
0003
0000
M100
0000
0000
0000
0000
0000
0010
0000
0000
0000
,
1001
0000
1010
2200
0300
0010
3000
1010
,
0101
0000
0000
0102
0000
0000
0000
0000
0000
0000
10M0
0000
0000
0000
0000
0000
M010
0000
0003
0000
0000
0000
0202
0000
,
0000
0000
0000
0300
0000
1000
0010
0000
0100
2000
0000
0000
,
0000
0000
0000
3000
0003
0000
0000
0000
0110
0000
0000
0000
0000
0000
1010
0000
0000
0000
0000
0000
2002
0000
0000
0000
,
3000
0000
0000
0200
0000
0003
0000
0000
0020
0000
0000
0300
,
0000
0000
0001
0030
0000
2001
0000
0000
0001
3000
0000
1000
,
0100
0000
0000
0000
0010
0000
0000
0000
1001
0000
0000
0000
0000
0000
0000
0000
0000
0000
0000
0000
0010
0000
0000
0000
0000
0000
0000
0100
0000
0000
0000
0000
0000
0110
0000
0000
0000
0000
0000
0101
0000
0000
0000
0000
1010
0000
0000
0000
,
0000
0000
0000
1100
0000
0000
0000
0000
0000
0000
0000
0000
0000
0000
0000
0110
0000
0000
0000
0000
1001
0000
0000
0000
0000
0000
0000
0000
0000
0000
0000
0000
0000
0011
0000
0000
0000
0000
0000
0110
0000
0000
0000
0000
1100
0000
0000
0000
,
0001
0000
0000
0000
0010
0000
0000
0000
0100
0000
0000
0000
1000
0000
0000
0000
0010
0000
0000
0000
0100
0000
0000
0000
0000
0000
0000
0001
0000
0000
0000
0000
0000
0010
0000
0000
0000
0000
0000
0100
0000
0000
0000
0000
1001
0000
0000
0000
,
0000
0000
0000
1010
0000
0000
0000
0000
0000
0000
0000
0000
0000
0000
0000
0110
0000
0000
0000
0000
1010
0000
0000
0000
0000
0000
0000
0000
0000
0000
0000
0000
0000
1010
0000
0000
0000
0000
0000
0101
0000
0000
0000
0000
1000
0000
0000
0000
,
0100
0010
0001
0010
0100
2020
0000
0000
0000
3000
0000
0130
,
0000
0000
0000
0000
0022
0000
0000
0000
0000
0000
0000
0000
0033
0000
0000
1001
0000
0000
0000
0000
0000
0110
0000
0000
,
0001
0100
1000
0010
0001
0000
0110
1001
,
0000
0000
0101
0000
0100
0000
1000
0100
0010
0000
1000
0100
0010
0000
1000
0000
,
0011
0110
0110
1000
0001
0000
0100
1100
,
0001
0000
0010
0000
0100
0000
0001
0010
0100
0000
1000
0100
0010
0000
0022
0000
,
0000
0033
0000
0100
0000
2020
0000
0000
,
3000
0130
1001
0000
2001
0100
0000
0010
,
0000
0000
0000
0001
0000
0000
0000
0000
0000
0010
0000
0000
3000
0000
0000
0100
0000
0000
1000
0000
0100
0010
2002
0000
,
0000
0000
3003
0010
0000
0000
0000
0000
1001
0000
0200
0000
0000
0000
0000
0001
0300
0000
1100
0000
1002
0000
0000
0000
,
0000
0000
0000
0100
0000
0000
0003
0000
0000
0010
0000
0000
1020
0000
0000
0000
0000
0000
0032
0000
0000
0000
0003
0000
,
2010
0000
0000
0100
3000
0000
0012
0000
0000
0010
0000
0000
0000
0000
0000
0100
0000
0000
0000
0000
0000
0010
0000
0000
,
0000
0000
0000
0103
0000
0000
0100
0000
2000
0002
0000
0000
0000
0000
0000
0100
0000
0000
0000
0000
0000
0010
0000
0000
,
3010
0000
0000
0010
0100
1000
0100
0010
0100
1000
0100
0010
,
0100
1000
0100
0010
0100
1000
0100
0010
0100
1000
0100
0010
,
0100
1000
0100
0010
0200
0000
0000
0000
0000
0000
0300
1000
,
0000
M010
0100
0000
1M00
0010
0000
M100
0000
0000
0M10
0000
,
0000
10M0
0100
0000
M000
0100
0000
1M00
0010
0000
M100
0010
,
1000
0000
0000
0000
00M0
0000
0000
0000
0100
1000
0000
0000
0000
0000
0000
0000
MMM0
0000
0000
0000
0000
0000
0000
0000
0000
0000
0000
0000
10M0
0000
0000
0000
0100
0000
0000
0000
0000
0000
0000
0000
00M0
0000
0000
0000
1000
0000
0000
0000
,
0100
0000
2000
0000
0000
0000
3000
0000
0010
0100
0000
1000
,
0010
0000
0100
1000
0000
0010
0100
0000
1010
0000
0000
0100
,
0010
0000
0200
0000
0000
0000
0300
0000
0000
1000
0010
1000
,
0000
0100
0010
0000
1000
0010
0000
0100
1000
0010
0000
0100
,
0010
0000
0000
0000
1003
0000
0120
0000
0000
0000
0000
0000
0000
0000
0000
1000
0000
0000
0002
0000
0000
0000
0000
0000
,
0000
0000
0003
0000
0000
0000
0000
0000
0000
0100
0000
0000
0001
0000
0000
1000
0000
0000
0001
0000
0000
0100
0000
0000
,
1000
0000
0000
0001
0000
0000
1000
0000
0100
0000
0001
0000
0200
0000
0000
0000
0300
0000
1000
0000
0000
0000
0000
0000
,
0001
0200
0000
0330
,
1000
0000
0100
0000
0010
0000
0002
0000
0000
0100
0000
0000
1000
0000
0000
0010
0000
0000
0100
0000
0000
0000
0000
0000
,
0010
0000
0000
0000
1000
0000
1000
0000
0000
0003
0000
0000
1000
0000
0000
0010
0100
0000
1000
0000
0000
0010
0000
0000
,
1100
0000
0000
0001
0100
0000
0202
0000
0000
0000
0000
0000
0003
0000
0000
0002
0000
0000
0300
0000
0000
0003
0000
0000
,
M1M2
0000
0000
1000
0100
0000
1MM0
0000
0000
0010
0100
0000
,
M1M0
0000
0000
0003
0010
0000
1000
0000
0101
0000
0000
0000
0000
0000
0001
0010
0000
0000
0000
0000
0100
0010
0000
0000
,
0000
0000
0001
0010
0000
0000
0000
0000
0100
0000
0000
0000
0000
0000
1000
0000
0100
0000
0000
0000
1000
0000
0000
0000
,
0000
0000
0100
0011
0000
0000
0000
0000
1000
0100
0000
0000
0000
0000
1000
0011
0000
0000
0000
0000
0100
0000
0000
0000
,
0000
0000
0001
0000
0010
0000
0000
0000
1001
0110
0000
0000
0000
0000
1001
0110
0000
0000
0000
0000
1100
0011
0000
0000
,
0000
0110
0000
0000
0011
0000
0000
0010
0001
0000
0100
0000
,
0000
0000
0001
0010
0000
0000
0000
0000
1000
0110
0000
0000
0000
0000
0001
1010
0000
0000
0000
0000
1001
0000
0000
0000
,
0000
0000
0000
0000
0010
0000
0000
0000
0200
0000
0000
0000
0000
0000
0000
0000
1000
0000
0000
0000
0000
0010
0000
0000
0000
0000
0000
0000
0000
0000
0000
0000
0000
0001
0000
0000
0000
0000
0000
0000
1000
0000
0000
0000
0000
0000
0000
0000
,
0000
0000
0000
0000
0001
0000
0000
0000
0000
0010
0000
0000
0000
0000
0000
0000
0000
0000
0000
0000
0000
0001
0000
0000
0000
0000
0000
0000
0300
0000
0000
0000
1000
0000
0000
0000
0100
0000
0000
0000
0010
0000
0000
0000
0001
0000
0000
0000
,
1000
0000
0000
0000
0100
0000
0000
0000
2010
0000
0000
0000
0000
0000
0000
0000
0001
0000
0000
0000
0000
0010
0000
0000
0000
0000
0000
0000
0000
0000
0000
0000
0000
0100
0000
0000
0000
0000
0000
0000
0001
0000
0000
0000
0000
0000
0000
0000
,
0000
0000
0000
0000
0010
0000
0000
0000
0000
0100
0000
0000
0000
0000
0000
0000
0000
0000
0000
0000
0000
0010
0000
0000
0000
0000
0000
0000
0001
0000
0000
0000
0000
0000
0000
0000
0000
0000
0000
0000
0000
0000
0000
0000
0010
0000
0000
0000
,
3000
0000
0000
0000
0000
0000
0000
0000
1001
0000
0000
0000
M00M
0000
0000
0110
0000
0000
0000
0000
0000
0100
0000
0000
0000
0000
0000
0110
0000
0000
0000
0000
1000
0000
0000
0000
M000
0000
0000
0001
0000
0000
0000
0000
0000
0000
0000
0000
,
0000
0000
0000
0110
0000
0000
0000
0000
1000
0000
0000
0000
M000
0000
0000
0000
0000
0000
0000
0000
0000
001M
0000
0000
0000
0000
0000
01M0
0000
0000
0000
0000
1M00
0000
0000
0000
0001
0000
0000
0000
0010
0000
0000
0000
1000
0000
0000
0000
,
0100
0000
0000
0000
0010
0000
0000
0000
1001
0000
0000
0000
0000
0000
0000
0100
0000
0000
0000
0000
0000
0010
0000
0000
0000
0000
0000
0001
0000
0000
0000
0000
1000
0MMM
0000
0000
0000
0000
0000
0100
0000
0000
0000
0000
0000
0000
0000
0000
,
0000
0000
0000
0010
0000
0000
0000
0000
MMM1
0000
0000
0000
0000
0000
0000
0000
0000
0000
0000
0000
0000
001M
0000
0000
0000
0000
0000
01M0
0000
0000
0000
0000
1M00
0000
0000
0000
0001
0000
0000
0000
0010
0000
0000
0000
0001
0000
0000
0000
,
0010
0000
0100
0000
2200
0000
0000
0000
0000
0000
0000
0000
3300
0000
0000
0011
0000
0000
0000
0000
0000
0202
0000
0000
,
0000
0000
0303
0010
0000
1000
0110
0101
,
1100
1010
0110
0000
0101
0011
0000
0011
,
0001
0000
0010
0100
0001
0000
0010
0100
1000
0000
1001
0000
0110
0000
1010
0000
,
0110
1100
0001
0000
0110
1100
0000
0011
,
0110
0000
1100
0001
0010
0000
1000
0100
0010
0000
1000
0100
0022
0000
0000
0000
,
MM00
0000
0000
0000
0000
0000
0030
0000
0000
0000
0000
0000
0000
0000
0000
0000
1000
0000
0100
0000
0000
0020
0000
0000
0000
0000
0000
0000
0000
0000
0000
0000
0000
0000
0000
0000
MM30
0000
0000
0000
0000
0000
0000
0000
0000
0000
0000
0000
,
0003
0000
0000
0000
1000
0000
0100
0000
0000
0022
0000
0000
0000
0000
0000
0000
0000
0000
0000
0000
0000
0000
0000
0000
MM33
0000
0000
0000
0000
0000
0000
0000
0000
0000
0000
0000
0000
0000
0000
0000
0001
0000
0010
0000
0000
2200
0000
0000
,
0000
0000
0000
33MM
0000
0000
0000
1001
0100
0010
0202
0000
,
0000
0300
1010
0003
0000
1100
0000
0000
1010
0000
0101
0000
,
0000
0000
1010
0000
0202
0000
0000
0000
0000
0000
0003
0000
0310
0000
0000
0000
0000
0000
0110
0000
0000
1001
0000
0000
,
0020
0001
0000
0000
0100
0000
0000
1030
0000
0000
0200
0000
,
0000
0000
0000
0000
0300
0000
0000
0000
0000
0000
0000
0000
0010
0000
0000
0000
0000
0000
0101
0000
0000
0000
0000
0000
1100
0000
0000
0000
0000
0000
2000
0000
0000
0100
0000
0000
0010
0000
0000
0001
0000
0000
3010
0000
0000
0100
0000
0000
,
0000
0000
0000
1MM1
0000
0000
0000
0000
0000
M11M
0000
0000
0000
0000
0000
0000
2001
0000
0100
0000
0010
0000
0000
0000
,
3000
2001
000M
3000
M202
0000
0303
0M0M
,
1002
0000
0000
0000
0000
0000
0200
0000
0000
0000
0000
0000
0000
0000
0000
0300
0000
0000
0003
0000
1000
0000
0100
0000
,
0010
0000
0001
0000
0000
0000
1001
0000
0000
0010
0000
0000
0010
0000
0000
0101
0000
0000
1010
0000
0000
0101
0000
0000
,
1001
0010
0100
0010
1100
0011
1002
0000
,
2000
0000
0000
3000
,
1003
0000
0000
0MM0
0000
0000
1001
0000
0100
0000
0010
0000
1MM1
0000
0000
0000
1001
0000
0000
0000
0000
0000
0000
0000
;

//---------------dance-single - Copied from Copied f----------------
#NOTES:
     dance-single:
     Copied from Copied f:
     Hard:
     7:
     0.680,0.809,0.706,0.424,1.000,642.000,125.000,75.000,9.000,2.000:
0000
0000
0000
0100
0000
0000
0010
0000
0100
0000
0010
0000
1100
0000
0000
0011
0000
0000
1100
0000
0000
0011
0000
0000
,
1000
0100
0000
0011
0110
0000
0010
0001
,
1000
0000
0100
0000
0010
0000
0001
0000
0010
0000
0100
0000
1000
0000
0000
0100
0000
0000
0110
0000
0000
0011
0000
0000
,
1100
0011
0000
0011
1100
0110
0001
0010
,
1000
0100
0010
0001
0010
0100
2000
0000
0000
3002
0000
0000
,
0010
0000
0000
0100
0000
0000
0000
0000
1100
0000
0000
1100
,
0003
0000
0000
0110
0000
0000
0000
0000
0000
0110
0000
0000
0000
0000
0000
0110
0000
0000
0000
0000
1001
0000
0000
0000
0000
0000
0000
0011
0000
0000
0000
0000
0000
0000
0000
0000
0000
0000
0000
0011
0000
0000
0000
0000
0100
0000
0000
0000
,
0000
0000
0000
0000
0000
0000
0000
0000
0000
0001
0000
0000
0000
0000
0000
0010
0000
0000
0000
0000
1000
0000
0000
0000
0100
0000
0000
0000
0010
0000
0000
0000
0001
0000
0000
0000
0010
0000
0000
0000
0100
0000
0000
0000
1001
0000
0000
0000
,
0000
0000
0000
0110
0000
0000
0000
0000
0000
0110
0000
0000
0000
0000
0000
0110
0000
0000
0000
0000
1001
0000
0000
0000
0000
0000
0000
0110
0000
0000
0000
0000
0000
0000
0000
0000
0000
0000
0000
0011
0000
0000
0000
0000
1100
0000
0000
0000
,
0000
0000
0000
0000
0000
0000
0000
0000
0000
0110
0000
0000
0000
0000
0000
0110
0000
0000
0000
0000
1000
0000
0000
0000
0100
0000
0000
0000
0010
0000
0000
0000
1000
0000
0000
0000
0100
0000
0000
0000
0010
0000
0000
0000
0002
0000
0000
0000
,
0000
0000
0000
0000
0000
0000
0000
0000
0000
0000
0003
0000
0000
0000
0000
0020
0000
0000
0000
0000
0000
0000
0000
0000
,
0030
0000
0000
1010
0000
0000
0110
0000
0010
0100
2002
0000
,
0000
3003
0110
1010
,
0101
0000
0000
0110
0000
0001
0010
0100
2000
0000
0000
0000
,
3000
0000
0000
1100
0022
0000
0000
0000
0000
0000
0000
0033
,
0000
0000
0000
0000
1MM0
0000
0000
0000
0101
0000
0000
0000
0000
0000
01MM
0000
0000
0000
0000
0000
000M
0010
0000
0000
,
0000
0000
0000
0000
1001
0000
0000
0000
0000
0000
M1M0
0000
0000
0000
0000
0011
0000
0000
0000
0000
10MM
0000
0000
0000
,
0000
0101
0000
0000
0002
0000
0000
0000
0000
0000
0100
0000
,
0000
1000
0100
0000
0010
0000
0000
0100
0010
0000
1000
0000
,
0000
0100
1003
0000
0110
0010
0000
0000
1000
0000
0000
0010
,
0000
0000
0110
0000
0000
0110
0000
0000
0100
0010
0100
0000
,
0000
0000
0101
0000
0000
0101
0000
0000
0110
0000
0000
1100
,
0000
0000
0110
0020
0000
0000
0001
0000
0000
0000
1000
0000
,
0000
0000
0100
0000
0000
0000
1000
0030
0000
0001
0010
0100
,
1000
0100
0010
0200
0000
0000
2000
0000
0000
3000
0002
0000
,
0003
0000
0002
0000
0003
0000
2000
0000
0000
3000
0000
0000
,
0300
0000
0000
0000
1001
0010
0000
0100
0000
0000
1000
0010
,
0000
0000
0010
0000
0100
0000
0000
0100
0010
0000
1000
0100
,
0010
0001
0010
0100
1000
0100
0000
0110
0000
0000
1001
0110
,
0000
0000
0110
0000
0110
0000
0000
0010
1000
0000
0001
0010
,
0100
1000
0001
0010
0102
0000
0000
0000
0000
0000
0003
0010
,
0000
0000
0200
0000
0000
0000
0000
0000
0000
0000
0000
0000
0300
0000
1010
0000
0000
0000
0101
0000
0000
0100
0000
0000
,
0100
0010
1000
0010
0000
0100
1000
0000
,
0010
0000
0000
0100
0000
0000
0001
0000
0010
0000
0100
0000
1000
0000
0100
0000
0010
0000
1001
0000
0000
0010
0000
0000
,
0100
0010
0100
0100
0000
0001
0010
0000
,
0010
0000
0000
0001
0000
0000
1000
0000
0100
0000
0010
0000
1000
0000
0100
0000
0010
0000
0002
0000
0000
0000
0000
0000
,
0010
0000
0103
0000
2000
0000
0010
3000
,
0001
0020
1000
0130
,
0002
0000
0000
0100
0000
0000
0013
0000
0000
0001
0010
0100
,
2000
0000
0000
0010
0000
0000
0000
0000
0001
0000
0000
0000
3000
0000
0100
0000
0000
0000
0000
0000
0010
0000
0000
0000
,
0100
0000
0010
0201
0000
0010
0300
1000
,
0010
0000
0000
0102
0000
0000
0000
0000
0000
0000
0100
0000
0000
0000
0000
0000
0010
0000
0003
0000
0000
0000
1002
0000
,
0000
0000
0000
0000
0000
0100
0010
0000
0100
2000
0000
0000
,
0000
0000
0000
3000
0003
0000
0000
0000
0100
0000
0000
0000
0000
0000
0010
0000
0000
0000
0000
0000
0102
0000
0000
0000
,
0000
0000
0000
2000
0000
0003
0000
0000
0020
3000
0000
0000
,
0030
0000
1001
0000
0000
0020
0000
0000
0000
0030
0000
0001
,
0010
0000
0000
0000
0100
0000
0000
0000
1000
0000
0000
0000
0000
0000
0000
0000
0000
0000
0000
0000
0010
0000
0000
0000
0000
0000
0000
0100
0000
0000
0000
0000
0000
0010
0000
0000
0000
0000
0000
0100
0000
0000
0000
0000
0010
0000
0000
0000
,
0000
0000
0000
1000
0000
0000
0000
0000
0000
0000
0000
0000
0000
0000
0000
0100
0000
0000
0000
0000
1000
0000
0000
0000
0000
0000
0000
0000
0000
0000
0000
0000
0000
0001
0000
0000
0000
0000
0000
0010
0000
0000
0000
0000
0100
0000
0000
0000
,
0001
0000
0000
0000
0010
0000
0000
0000
0100
0000
0000
0000
1000
0000
0000
0000
0010
0000
0000
0000
0001
0000
0000
0000
0000
0000
0000
0001
0000
0000
0000
0000
0000
0010
0000
0000
0000
0000
0000
0100
0000
0000
0000
0000
1000
0000
0000
0000
,
0000
0000
0000
1000
0000
0000
0000
0000
0000
0000
0000
0000
0000
0000
0000
0110
0000
0000
0000
0000
1000
0000
0000
0000
0000
0000
0000
0000
0000
0000
0000
0000
0000
0010
0000
0000
0000
0000
0000
0001
0000
0000
0000
0000
1000
0000
0000
0000
,
0100
0010
1000
0100
0010
2000
0000
0000
0000
3000
0000
0100
,
0000
0000
0000
0000
0020
0000
0000
0000
0000
0000
0000
0000
0030
0000
0000
1001
0000
0000
0000
0000
0000
1100
0000
0000
,
0001
1100
1000
0010
0001
0000
0010
0001
,
0000
0000
0001
0000
0010
0000
1000
0100
0010
0000
0001
0010
0100
0000
1000
0000
,
0100
0010
0100
1000
0100
0000
0010
0100
,
0001
0000
0010
0000
1000
0000
0100
0010
1000
0000
0100
0010
1000
0000
0002
0000
,
0000
0003
0000
0100
0000
0012
0000
0000
,
0000
0103
1010
0000
2001
0010
0000
0010
,
0000
0000
0000
0010
0000
0000
0000
0000
0000
0010
0000
0000
3000
0000
0000
0000
0000
0000
1000
0000
0100
0010
0002
0000
,
0000
0003
0000
0000
0020
0200
0000
0030
0300
0020
0002
0000
,
0000
0000
0030
0000
0000
0000
0003
0000
0000
0000
0000
0000
0200
0000
0000
0000
0000
0000
0002
0000
0000
0300
0000
0000
,
2000
0003
0002
0000
3000
0000
0000
0000
,
0000
0000
0000
0003
0000
0000
0110
0000
2002
0000
0000
0000
0000
0000
0000
0000
0000
0000
0000
0000
0000
0000
0000
0000
,
3000
0000
0000
0010
0100
1000
0010
0100
1000
0010
0100
1000
,
0010
0100
1000
0010
0100
1000
0010
0100
1000
0010
0100
1000
,
0000
0000
0000
0010
0200
0000
0000
0000
0000
0000
0300
1000
,
0000
0010
0100
0000
1000
0100
0000
1000
0100
0000
0010
0000
,
0000
1000
0100
0000
0000
0100
0000
0010
0100
0000
0100
0010
,
0000
0000
0100
0000
0000
0000
0000
0010
0100
0000
0000
1000
,
0100
0000
2000
0000
0000
0000
3000
0000
0010
0100
1000
0010
,
0100
1000
0010
0100
1000
0010
0100
1000
0100
0000
0000
0100
,
0010
0000
0200
0000
0000
0000
0300
0000
0000
0000
0010
0100
,
0000
0100
1000
0000
1000
0100
0000
0100
1000
0010
0000
1000
,
0010
0000
0000
0100
0000
0000
0000
0000
0003
0120
0000
0000
0100
0000
0000
0100
0000
0000
0200
0000
0000
0000
0000
0000
,
0000
0000
0300
0001
0000
0001
0000
1000
,
0000
0000
0000
1000
0000
0000
1000
0000
0100
0000
1000
0000
0100
0000
0000
0000
0000
0000
0100
0000
0000
0000
0000
0000
,
0000
1000
2000
0000
0000
0000
3030
0000
,
1000
0000
0100
0000
0010
0000
0002
0000
0000
0100
0000
0000
1000
0000
0000
0010
0000
0000
0000
0000
0000
0100
0000
0000
,
0000
0000
0000
0000
1000
0000
1000
0000
0000
0003
0000
0000
1000
0000
0000
0100
0010
0000
1000
0000
0000
0100
0000
0000
,
0010
0001
2010
0000
0000
0100
3000
0000
,
1002
0000
0000
1000
0100
0000
1000
0000
0000
0010
0100
0000
,
1000
0000
0000
0003
0100
0000
1000
0000
0100
0000
0000
0000
0000
0000
0011
0000
0000
0000
0000
0000
1100
0000
0000
0000
,
0000
0011
0000
0000
0110
0000
0000
1001
0110
0000
1001
0000
,
0000
0110
0000
0000
0110
0000
0000
1001
0000
0000
0110
0000
,
0000
0001
0010
0000
0100
0000
0000
1000
0000
0000
0100
0000
,
0000
0010
0000
0000
0001
0000
0000
0010
0001
0000
0100
0000
,
0000
0001
0000
0000
1000
0000
0000
1001
0000
0000
1001
0000
,
0000
0000
0000
0000
1010
0000
0000
0000
2000
0000
0000
0000
0000
0000
0000
0000
0001
0000
0000
0000
0000
0100
0000
0000
0000
0000
0000
0000
0000
0000
0000
0000
0000
0100
0000
0000
0000
0000
0000
0000
0010
0000
0000
0000
0000
0000
0000
0000
,
0000
0000
0000
0000
0001
0000
0000
0000
0000
0010
0000
0000
0000
0000
0000
0000
0000
0000
0000
0000
0000
0010
0000
0000
0000
0000
0000
0000
0000
0000
0000
0000
3001
0000
0000
0000
0100
0000
0000
0000
0010
0000
0000
0000
0001
0000
0000
0000
,
1000
0000
0000
0000
0100
0000
0000
0000
2010
0000
0000
0000
0000
0000
0000
0000
0001
0000
0000
0000
0000
0010
0000
0000
0000
0000
0000
0000
0000
0000
0000
0000
0000
0010
0000
0000
0000
0000
0000
0000
0001
0000
0000
0000
0000
0000
0000
0000
,
0000
0000
0000
0000
0001
0000
0000
0000
0000
0010
0000
0000
0000
0000
0000
0000
0000
0000
0000
0000
0000
0010
0000
0000
0000
0000
0000
0000
0001
0000
0000
0000
0000
0000
0000
0000
0000
0000
0000
0000
0000
0000
0000
0000
0010
0000
0000
0000
,
3000
0000
0000
0000
0000
0000
0000
0000
1001
0000
0000
0000
0000
0000
0000
0010
0000
0000
0000
0000
0000
0100
0000
0000
0000
0000
0000
0010
0000
0000
0000
0000
1000
0000
0000
0000
0000
0000
0000
0010
0000
0000
0000
0000
0000
0000
0000
0000
,
0000
0000
0000
0100
0000
0000
0000
0000
1000
0000
0000
0000
0000
0000
0000
0000
0000
0000
0000
0000
0000
0010
0000
0000
0000
0000
0000
0100
0000
0000
0000
0000
1000
0000
0000
0000
0100
0000
0000
0000
0010
0000
0000
0000
1000
0000
0000
0000
,
0100
0000
0000
0000
0010
0000
0000
0000
0001
0000
0000
0000
0000
0000
0000
0010
0000
0000
0000
0000
0000
0100
0000
0000
0000
0000
0000
0011
0000
0000
0000
0000
1000
0000
0000
0000
0000
0000
0000
0100
0000
0000
0000
0000
0000
0000
0000
0000
,
0000
0000
0000
0100
0000
0000
0000
0000
1000
0000
0000
0000
0000
0000
0000
0000
0000
0000
0000
0000
0000
0010
0000
0000
0000
0000
0000
0100
0000
0000
0000
0000
1000
0000
0000
0000
0100
0000
0000
0000
0010
0000
0000
0000
1000
0000
0000
0000
,
0100
0000
0010
0000
0002
0000
0000
0000
0000
0000
0000
0000
0003
0000
0000
0010
0000
0000
0000
0000
0000
2010
0000
0000
,
0000
0000
3000
0001
0000
0110
0110
0110
,
1001
0110
0110
0000
1001
0110
0000
1001
,
1000
0000
0100
0010
0001
0000
0010
0100
1000
0000
0001
0000
0010
0000
1000
0000
,
0010
0100
0001
0000
0010
0100
0000
0001
,
0010
0000
1000
0100
0010
0000
0001
0010
0100
0000
1000
0100
0012
0000
0000
0000
,
0000
0000
1000
0100
0020
0000
0000
0000
0000
0030
0000
1000
,
0103
0020
0000
0000
0000
0000
0030
0000
1000
0100
0020
0000
,
0000
0000
0000
0030
0000
0000
0000
0001
0100
0010
0002
0000
,
0000
0000
0010
0003
0000
0100
0000
0000
1001
0000
1001
0000
,
0000
0000
1010
0000
0101
0000
0000
0000
0000
0000
0000
0000
1000
0000
0000
0000
0000
0000
0010
0000
0000
0001
0000
0000
,
0020
1000
0000
0000
0100
0000
0000
1030
0000
0000
0200
0000
,
0000
0000
0300
0000
0000
0000
0010
0000
0000
0001
0000
0000
0100
0000
0000
2000
0000
0000
0010
0000
0000
3010
0000
0000
,
0000
0000
0000
1001
0000
0000
0000
0000
0000
0100
0000
0000
0000
0000
0000
0000
2010
0000
0000
0000
0000
0000
0000
0000
,
0000
0020
3000
0000
0230
0000
0000
0000
,
0002
0000
0000
0300
0000
0000
2000
0000
0000
0000
0000
0000
0000
0000
0000
3000
0000
0000
0003
0000
1000
0000
0100
0000
,
0010
0000
0001
0000
0000
0000
0101
0000
0000
1010
0000
0000
0101
0000
0000
1010
0000
0000
0110
0000
0000
1001
0000
0000
,
1001
0100
0010
0001
0100
0010
2002
0000
,
0000
0000
0000
0000
,
3003
0000
0000
1001
0000
0110
1001
1001
0000
0000
0000
0000
;

//---------------dance-single - Copied from Copied f----------------
#NOTES:
     dance-single:
     Copied from Copied f:
     Medium:
     5:
     0.525,0.615,0.271,0.311,0.847,547.000,48.000,55.000,0.000,1.000:
0000
0000
0000
1000
0000
0000
0100
0000
0010
0000
0001
0000
0100
0000
0000
0001
0000
0000
0010
0000
0000
0001
0000
0000
,
0010
0100
0000
0001
0010
0000
0010
0001
,
1000
0000
0100
0000
0010
0000
1000
0000
0100
0000
0010
0000
1000
0000
0000
0100
0000
0000
1000
0000
0000
0100
0000
0000
,
1000
0100
0000
0010
0100
0000
0001
0100
,
0001
0010
0100
0001
0010
0100
2000
0000
0000
3002
0000
0000
,
0000
0000
0000
0200
0000
0000
0303
0000
0010
0000
0000
1000
,
0000
0000
0000
0100
0000
0000
0000
0000
0000
0100
0000
0000
0000
0000
0000
0100
0000
0000
0000
0000
1000
0000
0000
0000
0000
0000
0000
0010
0000
0000
0000
0000
0000
0000
0000
0000
0000
0000
0000
0010
0000
0000
0000
0000
0001
0000
0000
0000
,
0000
0000
0000
0000
0000
0000
0000
0000
0000
0001
0000
0000
0000
0000
0000
0010
0000
0000
0000
0000
1000
0000
0000
0000
0100
0000
0000
0000
0010
0000
0000
0000
1000
0000
0000
0000
0100
0000
0000
0000
0010
0000
0000
0000
0001
0000
0000
0000
,
0000
0000
0000
0010
0000
0000
0000
0000
0000
0010
0000
0000
0000
0000
0000
0010
0000
0000
0000
0000
1000
0000
0000
0000
0000
0000
0000
0100
0000
0000
0000
0000
0000
0000
0000
0000
0000
0000
0000
0010
0000
0000
0000
0000
0100
0000
0000
0000
,
0000
0000
0000
0000
0000
0000
0000
0000
0000
0010
0000
0000
0000
0000
0000
0001
0000
0000
0000
0000
1000
0000
0000
0000
0100
0000
0000
0000
0010
0000
0000
0000
1000
0000
0000
0000
0100
0000
0000
0000
0010
0000
0000
0000
0002
0000
0000
0000
,
0000
0000
0000
0000
0000
0000
0000
0000
0000
0000
0003
0000
0000
0000
0000
0200
0000
0000
0000
0000
0000
0000
0000
0000
,
0300
0000
0000
1001
0000
0000
0100
0000
0010
0100
2000
0000
,
0000
3000
0010
0001
,
0010
0000
0000
0100
0000
0001
0010
0100
2000
0000
0000
0000
,
3000
0000
0000
0100
0020
0000
0000
0000
0000
0000
0000
0030
,
0000
0000
0000
0000
1010
0000
0000
0000
0101
0000
0000
0000
0000
0000
1100
0000
0000
0000
0000
0000
0000
0011
0000
0000
,
0000
0000
0000
0000
1001
0000
0000
0000
0000
0000
1100
0000
0000
0000
0000
0011
0000
0000
0000
0000
1010
0000
0000
0000
,
0000
0101
0000
0000
0002
0000
0000
0000
0000
0000
0100
0000
,
0000
1000
0000
0000
0100
0000
0000
0010
0000
0000
1000
0000
,
0000
0100
0003
0000
0100
0010
0000
0000
1000
0000
0000
0100
,
0000
0000
0101
0000
0000
0101
0000
0000
1000
0100
0010
0000
,
0000
0000
0110
0000
0000
0110
0000
0000
0100
0000
0000
1000
,
0000
0000
0100
0020
0000
0000
0000
0000
0000
0000
1000
0000
,
0000
0000
0100
0000
0000
0000
1000
0030
0000
0001
0010
0100
,
1000
0000
0000
0200
0000
0000
0010
0000
0000
0000
0001
0000
,
0000
0000
0001
0000
0000
0000
0010
0000
0000
0300
0000
0000
,
0000
0000
0000
0000
1000
0100
0000
0010
0000
0000
1000
0100
,
0000
0000
0010
0000
1000
0000
0000
0100
0010
0000
1000
0100
,
0010
1000
0100
0010
1000
0100
0000
0010
0000
0000
0001
0100
,
0000
0000
0010
0000
0100
0000
0010
1000
0000
0000
0001
0010
,
0100
1000
0001
0010
0200
0000
0000
0000
0000
0000
0300
1000
,
0000
0000
0100
0000
0000
0000
0000
0000
0000
0000
0000
0000
0000
0000
0010
0000
0000
0000
1000
0000
0000
0100
0000
0000
,
0010
0100
1000
0100
0000
0001
0010
0000
,
0100
0000
0000
1000
0000
0000
0001
0000
0010
0000
0100
0000
0001
0000
0010
0000
0100
0000
0001
0000
0000
1000
0000
0000
,
0100
1000
0100
1000
0000
0100
0010
0000
,
0010
0000
0000
0001
0000
0000
1000
0000
0100
0000
0010
0000
1000
0000
0100
0000
0010
0000
0002
0000
0000
0000
0000
0000
,
0003
0100
2000
3000
,
0001
0020
0030
0100
,
2000
0000
0000
3000
0000
0000
0010
0000
0000
1000
0100
0010
,
0002
0000
0000
0000
0010
0000
0003
0100
0000
0000
0010
0000
,
0000
0000
0100
0000
0000
0000
0010
0000
0000
1000
0000
0000
0000
0000
0000
0100
0000
0000
0000
0000
0000
1000
0000
0000
,
0010
0000
0000
0102
0000
0000
0000
0000
0000
0000
0100
0000
0000
0000
0000
0000
0010
0000
0003
0000
0000
0000
0100
0000
,
0000
0000
0000
0000
0000
0001
0010
0000
0100
2000
0000
0000
,
0000
0000
0000
3000
0000
0000
0000
0000
0100
0000
0000
0000
0000
0000
0010
0000
0000
0000
0000
0000
0200
0000
0000
0000
,
0300
0000
0000
2000
0000
0000
3000
0000
0200
0000
0000
0000
,
0300
0000
0002
0000
0003
2000
0000
0000
0000
3000
0000
0011
,
0000
0000
0000
0000
0000
0000
0000
0000
1100
0000
0000
0000
0000
0000
0000
0000
0000
0000
0000
0000
0001
0000
0000
0000
0000
0000
0000
0100
0000
0000
0000
0000
0000
0010
0000
0000
0000
0000
0000
0100
0000
0000
0000
0000
0001
0000
0000
0000
,
0000
0000
0000
0010
0000
0000
0000
0000
0000
0000
0000
0000
0000
0000
0000
0100
0000
0000
0000
0000
0010
0000
0000
0000
0000
0000
0000
0000
0000
0000
0000
0000
0000
0001
0000
0000
0000
0000
0000
0010
0000
0000
0000
0000
1000
0000
0000
0000
,
0100
0000
0000
0000
0010
0000
0000
0000
1000
0000
0000
0000
0100
0000
0000
0000
0010
0000
0000
0000
1000
0000
0000
0000
0000
0000
0000
0100
0000
0000
0000
0000
0000
0010
0000
0000
0000
0000
0000
0100
0000
0000
0000
0000
1000
0000
0000
0000
,
0000
0000
0000
0100
0000
0000
0000
0000
0000
0000
0000
0000
0000
0000
0000
0010
0000
0000
0000
0000
0001
0000
0000
0000
0000
0000
0000
0000
0000
0000
0000
0000
0000
0010
0000
0000
0000
0000
0000
0100
0000
0000
0000
0000
0001
0000
0000
0000
,
0010
0100
0001
0010
0100
1000
0000
0000
1000
0000
0000
0100
,
0000
0000
0000
0000
0010
0000
0000
0000
0000
0000
0000
0000
0000
0000
0000
0001
0000
0000
0000
0000
0000
0010
0000
0000
,
0100
1000
0100
0010
0001
0000
0010
0100
,
0000
0000
1000
0000
0100
0000
0001
0010
0100
0000
0001
0010
0100
0000
1000
0000
,
0100
0010
0001
0010
0100
0000
1000
0100
,
0010
0000
0001
0000
1000
0000
0100
0010
1000
0000
0100
0010
1000
0000
0200
0000
,
0000
0300
0000
1000
0000
0200
0000
0300
,
0000
0100
1010
0000
2001
0000
0000
0000
,
0000
0000
0000
0000
0000
0000
0000
0000
0100
0010
0002
0000
,
0000
0000
0000
0003
0010
0100
0000
0000
0000
0010
0200
0000
,
0000
0000
0000
0000
0300
0000
3012
0000
0000
0100
0000
0000
,
2003
0200
0000
3000
,
0000
0000
0000
0010
0002
0000
0300
0000
0000
0000
0000
0000
,
0000
0010
1000
0100
,
0010
1000
0010
0100
,
0000
0000
0000
0010
0200
0000
0000
0000
0000
0000
0300
1000
,
0000
0100
0010
0000
1000
0100
0000
0020
0000
0030
0000
0000
,
0000
0010
0200
0000
0000
0300
0000
1000
0200
0000
0300
0000
,
0000
0000
0000
0000
0000
0000
0000
0010
0200
0000
0000
0300
,
0000
0000
2000
0000
0000
0000
3000
0000
0100
0000
0000
0010
,
0000
0000
0100
0000
0000
0010
0000
0000
0100
0000
0000
0010
,
0100
0000
2000
0000
0000
0000
3000
0000
0000
0000
0010
0000
,
0000
0100
0000
0000
1000
0000
0000
0100
0000
0000
0010
0000
,
0000
0000
0000
0000
0000
0000
0000
0000
0003
0010
0000
0000
1000
0000
0000
0100
0000
0000
0020
0000
0000
0000
0000
0000
,
0000
0000
0030
0001
0000
0010
0000
0100
,
0000
0000
0000
1000
0000
0000
0100
0000
0010
0000
0001
0000
1000
0000
0000
0000
0000
0000
0100
0000
0000
0000
0000
0000
,
0000
0001
0020
0000
0000
0000
0030
0000
,
0100
0020
1030
0100
,
0100
1010
0101
1010
,
0101
0000
1010
0000
0000
0101
0000
0000
,
1000
0000
0000
0001
0010
0000
0001
0000
0000
1000
0100
0000
,
1000
0000
0000
0010
0100
0000
0000
0010
0000
0000
0100
0000
,
0000
0101
0000
0000
1010
0000
0000
0001
0010
0000
0001
0000
,
0000
1010
0000
0000
0101
0000
0000
0010
0000
0000
0100
0000
,
0000
0001
0010
0000
0001
0000
0000
1010
0000
0000
1010
0000
,
0000
0010
0000
0000
0001
0000
0000
0100
0010
0000
0001
0000
,
0000
0010
0000
0000
0100
0000
0000
0010
0000
0000
0100
0000
,
0000
0000
0000
0000
1000
0000
0000
0000
0010
0000
0000
0000
0000
0000
0000
0000
0001
0000
0000
0000
0000
0100
0000
0000
0000
0000
0000
0000
0000
0000
0000
0000
0000
0100
0000
0000
0000
0000
0000
0000
0010
0000
0000
0000
0000
0000
0000
0000
,
0000
0000
0000
0000
0010
0000
0000
0000
0000
0100
0000
0000
0000
0000
0000
0000
0000
0000
0000
0000
0000
0100
0000
0000
0000
0000
0000
0000
0000
0000
0000
0000
0001
0000
0000
0000
0000
0000
0000
0000
0000
0000
0000
0000
0001
0000
0000
0000
,
0000
0000
0000
0000
0000
0000
0000
0000
0010
0000
0000
0000
0000
0000
0000
0000
0100
0000
0000
0000
0000
0010
0000
0000
0000
0000
0000
0000
0000
0000
0000
0000
0000
0010
0000
0000
0000
0000
0000
0000
0100
0000
0000
0000
0000
0000
0000
0000
,
0000
0000
0000
0000
0100
0000
0000
0000
0000
0010
0000
0000
0000
0000
0000
0000
0000
0000
0000
0000
0000
0010
0000
0000
0000
0000
0000
0000
0100
0000
0000
0000
0000
0000
0000
0000
0000
0000
0000
0000
0000
0000
0000
0000
0010
0000
0000
0000
,
0000
0000
0000
0000
0000
0000
0000
0000
0100
0000
0000
0000
0000
0000
0000
0010
0000
0000
0000
0000
0000
0010
0000
0000
0000
0000
0000
0010
0000
0000
0000
0000
0100
0000
0000
0000
0000
0000
0000
0010
0000
0000
0000
0000
0000
0000
0000
0000
,
0000
0000
0000
0100
0000
0000
0000
0000
1000
0000
0000
0000
0000
0000
0000
0000
0000
0000
0000
0000
0000
0010
0000
0000
0000
0000
0000
0100
0000
0000
0000
0000
1000
0000
0000
0000
0000
0000
0000
0000
0000
0000
0000
0000
1000
0000
0000
0000
,
0000
0000
0000
0000
0000
0000
0000
0000
1000
0000
0000
0000
0000
0000
0000
0010
0000
0000
0000
0000
0000
0001
0000
0000
0000
0000
0000
0010
0000
0000
0000
0000
1000
0000
0000
0000
0000
0000
0000
0100
0000
0000
0000
0000
0000
0000
0000
0000
,
0000
0000
0000
0100
0000
0000
0000
0000
1000
0000
0000
0000
0000
0000
0000
0000
0000
0000
0000
0000
0000
0010
0000
0000
0000
0000
0000
0100
0000
0000
0000
0000
1000
0000
0000
0000
0100
0000
0000
0000
0010
0000
0000
0000
1000
0000
0000
0000
,
0000
0000
0000
0000
0200
0000
0000
0000
0000
0000
0000
0000
0300
0000
0000
0001
0000
0000
0000
0000
0000
0020
0000
0000
,
0030
0000
0000
0110
0000
1001
0100
0100
,
0001
0010
0010
0000
1000
0100
0000
1000
,
0001
0000
0010
0100
1000
0000
0000
0000
0010
0000
0001
0000
0100
0000
0001
0000
,
0010
0100
0010
0000
0010
0100
0000
0010
,
0100
1000
0000
0001
0000
2000
0000
0000
,
3000
0000
0000
0000
0200
0000
0000
0000
0000
0300
0000
0000
,
0000
0020
0000
0000
0000
0000
0030
0000
0000
0000
0002
0000
,
0000
0000
0000
0003
0000
0000
0000
0001
0010
0100
1000
0000
,
0000
0000
0010
0000
0000
0100
0000
0000
0010
0000
0100
0000
,
0000
0000
0100
0000
0010
0000
0000
0000
0000
0000
0000
0000
0100
0000
0000
0000
0000
0000
1000
0000
0000
0100
0000
0000
,
0010
0000
0000
0000
0100
0000
0000
0010
0000
0000
0001
0000
,
0000
0000
0100
0010
0100
1000
0100
0010
,
0000
0000
0000
0100
0000
0000
0000
0000
0000
0010
0000
0000
0000
0000
0000
0000
0200
0000
0000
0000
0300
0000
0000
0000
,
0000
0002
0000
0003
2000
0000
3000
0000
,
0200
0000
0000
0301
0000
0000
0000
0000
0000
0000
1000
0000
,
0000
0000
0010
0000
0000
0000
1100
0000
0000
0110
0000
0000
0110
0000
0000
0110
0000
0000
1100
0000
0000
0110
0000
0000
,
0011
0110
0110
0110
0011
0110
2002
0000
,
0000
0000
0000
0000
,
0000
0000
0000
3003
0000
0000
0000
1001
0000
0000
0000
0000
;

//---------------dance-single - Copied from Copied f----------------
#NOTES:
     dance-single:
     Copied from Copied f:
     Easy:
     3:
     0.321,0.356,0.090,0.232,0.452,341.000,16.000,41.000,0.000,0.000:
0000
0000
1001
0010
,
0010
0100
0000
0001
0010
0000
1000
0100
,
0001
0010
0001
0010
,
0001
0010
0000
0010
0100
0000
1000
0100
,
0001
0001
2000
0000
,
3000
0000
0000
0002
0000
0000
0003
0000
0100
0000
0000
1000
,
0000
0000
0000
0000
0000
0000
0000
0000
0000
0100
0000
0000
0000
0000
0000
0000
0000
0000
0000
0000
0100
0000
0000
0000
0000
0000
0000
0010
0000
0000
0000
0000
0000
0000
0000
0000
0000
0000
0000
0010
0000
0000
0000
0000
0001
0000
0000
0000
,
0000
0000
0000
0000
0000
0000
0000
0000
0000
0001
0000
0000
0000
0000
0000
0010
0000
0000
0000
0000
1000
0000
0000
0000
0000
0000
0000
0000
0000
0000
0000
0000
1000
0000
0000
0000
0000
0000
0000
0000
0000
0000
0000
0000
0001
0000
0000
0000
,
0000
0000
0000
0000
0000
0000
0000
0000
0000
0100
0000
0000
0000
0000
0000
0000
0000
0000
0000
0000
1000
0000
0000
0000
0000
0000
0000
0100
0000
0000
0000
0000
0000
0000
0000
0000
0000
0000
0000
1000
0000
0000
0000
0000
0100
0000
0000
0000
,
0000
0000
0000
0000
0000
0000
0000
0000
0000
1000
0000
0000
0000
0000
0000
0100
0000
0000
0000
0000
0001
0000
0000
0000
0000
0000
0000
0000
0000
0000
0000
0000
0001
0000
0000
0000
0000
0000
0000
0000
0000
0000
0000
0000
0100
0000
0000
0000
,
0000
0000
0000
0000
0000
0010
0000
0000
,
0000
0000
0000
0001
0000
0000
0000
0000
0001
0000
0000
1010
,
0000
0000
0010
0010
,
0100
0000
0000
0100
0000
0001
0000
0000
0010
0000
0000
0000
,
0000
0000
0000
0001
0010
0000
0000
0000
0000
0000
0000
0000
,
0000
0000
0000
0000
0000
0000
0000
0000
1001
0000
0000
0000
0000
0000
0100
0000
0000
0000
0000
0000
0000
0010
0000
0000
,
0000
0000
0000
0000
0100
0000
0000
0000
0000
0000
0010
0000
0000
0000
0000
0100
0000
0000
0000
0000
0010
0000
0000
0000
,
0000
0000
0000
0000
0101
0000
0000
0000
0000
0000
0101
0000
,
0000
0000
0000
0000
0101
0000
0000
0000
0000
0000
0101
0000
,
0000
0000
0000
0000
0100
0010
0000
0000
0000
0000
0000
0010
,
0000
0000
0100
0000
0000
0010
0000
0000
0000
0100
0010
0000
,
0000
0000
0001
0000
0000
0001
0000
0000
1000
0000
0000
1000
,
0000
0000
0100
0020
0000
0000
0000
0000
0000
0000
0000
0000
,
0000
0000
0000
0000
,
0030
0200
0000
0000
,
0000
0000
0000
0000
,
0300
0000
0000
0000
1000
0000
0000
0100
0000
0000
1000
0100
,
0000
0000
0000
0000
0000
0000
0000
0100
0010
0000
1000
0000
,
0000
1000
0000
0000
1000
0000
0000
0010
0000
0000
0010
0100
,
0000
0000
0010
0000
0100
0000
0000
1000
0000
0000
0100
0000
,
0000
1000
0000
0000
0200
0000
0000
0000
0000
0300
0000
0000
,
0000
0100
0000
0000
0000
0000
0000
0010
0000
1000
0000
0000
,
1000
0000
1000
0000
0000
0001
0010
0000
,
0001
0010
1000
0000
1000
0000
1000
0000
,
0010
0000
0010
0000
0000
0100
0010
0000
,
0010
0100
0001
0000
0001
0000
0100
0000
,
0000
0100
0010
0000
,
0010
0100
0000
0100
,
0010
0000
0010
1000
,
0100
0000
0000
0000
0010
0000
0000
0100
0000
0000
0010
0000
,
0000
0000
0010
1000
0000
0100
0000
0100
,
0000
0000
0000
0002
0000
0000
0000
0000
0000
0000
0000
0000
0000
0000
0000
0000
0000
0000
0003
0000
0000
0000
0200
0000
,
0000
0300
0010
2000
,
0000
0000
0000
3000
0000
0000
0000
0000
0010
0000
0000
0000
0000
0000
0010
0000
0000
0000
0000
0000
0010
0000
0000
0000
,
0000
0000
0000
1000
0000
0000
0000
0000
0100
0000
0000
0000
,
0000
0000
0000
0000
0000
2002
0000
0000
0000
0000
0000
0000
,
3003
0000
0000
0000
0000
0000
0000
0000
0000
0000
0000
0000
0000
0000
0000
0000
0000
0000
0000
0000
0100
0000
0000
0000
0000
0000
0000
0000
0000
0000
0000
0000
0000
0010
0000
0000
0000
0000
0000
0000
0000
0000
0000
0000
0100
0000
0000
0000
,
0000
0000
0000
0010
0000
0000
0000
0000
0000
0000
0000
0000
0000
0000
0000
0100
0000
0000
0000
0000
0010
0000
0000
0000
0000
0000
0000
0000
0000
0000
0000
0000
0000
0100
0000
0000
0000
0000
0000
0010
0000
0000
0000
0000
0000
0000
0000
0000
,
0000
0000
0000
0000
0000
0000
0000
0000
0100
0000
0000
0000
0000
0000
0000
0000
0000
0000
0000
0000
0010
0000
0000
0000
0000
0000
0000
0000
0000
0000
0000
0000
0000
0100
0000
0000
0000
0000
0000
0000
0000
0000
0000
0000
0010
0000
0000
0000
,
0000
0000
0000
0000
0000
0000
0000
0000
0000
0000
0000
0000
0000
0000
0000
0010
0000
0000
0000
0000
0001
0000
0000
0000
0000
0000
0000
0000
0000
0000
0000
0000
0000
0010
0000
0000
0000
0000
0000
0100
0000
0000
0000
0000
0010
0000
0000
0000
,
0000
0000
0010
0000
0000
2000
0000
0000
0000
3000
0000
0000
,
0000
0000
0200
0000
0000
0000
0000
0000
0000
0000
0000
0000
0300
0000
0000
1001
0000
0000
0000
0000
0000
1001
0000
0000
,
0000
1000
0000
0010
0000
0000
0010
0100
,
0000
1000
0100
0001
0000
0001
0000
1000
,
0000
1000
0000
0100
0010
0000
1000
0100
,
0000
1000
0100
1000
0000
0001
0000
0200
,
0000
0000
0300
0000
0000
0020
0000
0000
,
0030
1001
2000
0000
,
0000
0000
0000
0000
0000
0000
3000
0000
0000
0000
0020
0000
,
0000
0000
0000
0000
0030
0000
0000
0000
0000
0000
0002
0000
,
0000
0000
0000
0000
0003
0000
0200
0000
0000
0300
0000
0000
,
0001
0020
0000
0000
,
0030
0000
0000
0000
0200
0000
0000
0000
0000
0000
0000
0000
,
0000
0000
0000
0000
,
0000
0000
0000
0000
,
0300
0000
0000
0000
0020
0000
0000
0000
0000
0000
0030
0000
,
0000
1000
0000
0000
0100
0000
0000
0020
0000
0000
0030
0000
,
0000
0000
0002
0000
0000
0003
0000
0000
0200
0000
0000
0000
,
0000
0000
0300
0000
0000
0000
0000
0000
0002
0000
0000
0000
,
0003
0000
2000
0000
0000
0000
3000
0000
0000
0001
0000
0000
,
0001
0010
0010
0100
,
0200
0000
0300
0110
,
0000
0110
0000
0110
,
0000
0000
0000
0100
0010
0100
0020
0000
,
0000
0000
0030
1000
0000
0010
0000
1000
,
0000
0010
0000
1000
0000
0010
0000
0000
,
0000
0001
0200
0000
0300
0000
0000
0000
,
0100
0002
1003
0100
,
0000
0010
0001
0010
,
0000
1000
0100
1000
,
0000
0001
0010
0001
,
0100
0000
0000
0010
0000
0000
0000
0010
0000
0000
0100
0000
,
0000
0100
0000
0000
0000
0000
0000
0100
0010
0000
0000
0000
,
0000
0100
0000
0000
0010
0000
0000
0010
0000
0000
0000
0000
,
0000
1000
0100
0000
0000
0000
0000
0010
0000
0000
0010
0000
,
0000
0100
0000
0000
0000
0000
0000
0100
0010
0000
0000
0000
,
0000
0010
0000
0000
0010
0000
0000
0100
0000
0000
0000
0000
,
0000
0100
0020
0000
0000
0000
0000
0000
0000
0000
0000
0000
,
0000
0000
0000
0030
0000
0000
0000
0000
0100
0000
0000
0100
,
0000
0000
0020
0000
0000
0000
0000
0000
0000
0000
0000
0000
,
0000
0000
0030
0000
0000
0000
0000
0000
0000
0000
0000
0000
,
0000
0000
0000
0000
0000
0000
0000
0000
0100
0000
0000
0000
0000
0000
0000
0000
0000
0000
0000
0000
0100
0000
0000
0000
0000
0000
0000
0000
0000
0000
0000
0000
0100
0000
0000
0000
0000
0000
0000
0010
0000
0000
0000
0000
0000
0000
0000
0000
,
0000
0000
0000
0010
0000
0000
0000
0000
0100
0000
0000
0000
0000
0000
0000
0000
0000
0000
0000
0000
0000
0010
0000
0000
0000
0000
0000
0100
0000
0000
0000
0000
0010
0000
0000
0000
0000
0000
0000
0000
0000
0000
0000
0000
0100
0000
0000
0000
,
0000
0000
0000
0000
0000
0000
0000
0000
0100
0000
0000
0000
0000
0000
0000
0000
0000
0000
0000
0000
0100
0000
0000
0000
0000
0000
0000
0000
0000
0000
0000
0000
0100
0000
0000
0000
0000
0000
0000
0010
0000
0000
0000
0000
0000
0000
0000
0000
,
0000
0000
0000
0100
0000
0000
0000
0000
0010
0000
0000
0000
0000
0000
0000
0000
0000
0000
0000
0000
0000
0010
0000
0000
0000
0000
0000
0000
0000
0000
0000
0000
1000
0000
0000
0000
0000
0000
0000
0000
0000
0000
0000
0000
1000
0000
0000
0000
,
0000
0000
0000
0000
0200
0000
0000
0000
0000
0000
0000
0000
0300
0000
0000
0000
0000
0000
0000
0000
0000
0020
0000
0000
,
0000
0000
0030
0001
0000
0001
0000
0010
,
0000
0100
0010
0000
0010
0100
0000
0001
,
0000
0001
0000
0100
0000
0100
0000
0001
,
0000
0010
0100
0000
0010
0100
0000
0010
,
0100
1000
0000
0100
0000
2000
0000
0000
,
0000
0000
0000
0000
0200
0000
0000
0000
0000
3000
0000
0000
,
0000
0020
0000
0000
0000
0000
0300
0000
0000
0000
0002
0000
,
0000
0000
0000
0033
0000
0000
0000
0010
0000
0000
0100
0000
,
0000
0000
0000
0000
0000
0010
0000
0000
0000
0000
0010
0000
,
0000
0010
0100
0100
,
0020
0000
0000
0000
0000
0000
0030
0000
0000
0000
0100
0000
,
0000
0000
0000
0010
0000
0010
0000
0010
,
0000
0000
0000
0100
0000
0000
0000
0000
0000
0100
0000
0000
0000
0000
0000
0000
0100
0000
0000
0000
0000
0000
0000
0000
,
0000
0010
0000
0000
0100
0000
0000
0000
,
0100
0010
0000
0000
,
0000
0000
1000
0100
0010
0100
1000
0100
,
0001
0010
0100
0010
0001
0010
2002
0000
,
0000
0000
3003
0000
,
0000
0000
0000
0000
0000
0000
0000
1001
0000
0000
0000
0000
;
